» » Регистратор PHILIPS ADR800s 1920x1080P

Обзоры китайских товаров, обзор товара  интернет магазинов, написать обзор о товаре, отзывы интернет магазинов, покупки на Tinydeal.com, покупки на aliexpress.com, покупки на gearbest.com, покупки на banggood.com, покупки на dealextreme.com, покупки на jd.com, покупки на jd.ru
Обзоры китайских товаров, обзор товара  интернет магазинов, написать обзор о товаре, отзывы интернет магазинов, покупки на Tinydeal.com, покупки на aliexpress.com, покупки на gearbest.com, покупки на banggood.com, покупки на dealextreme.com, покупки на jd.com, покупки на jd.ru
 
 
 



Регистратор PHILIPS ADR800s 1920x1080P

Автор: bdos от 29-08-2017, 08:51, посмотрело: 81

0 Данный товар из магазина
Цена: $99.68, Перейти в магазин
* цена указана на момент написания обзора (29.08.2017)
Добрый день, уважаемые читатели. Продолжаю серию около автомобильных обзоров. Сегодня — довольно дорогой видео регистратор. Новинка, на него еще не было обзоров.


Я уже обозревал несколько бюджетных автомобильных видео регистраторов, теперь посмотрим, на что способно устройство с бюджетом около 100$.

Модель ADR800s не для российского рынка, судя по официальному сайту, но использовать ее можно, в меню есть английский язык.

Посылка
Коробка с регистратором упакована в картонную коробку:


Коробка оформлена аскетично, нет кричащих надписей:

Может оно и к лучшему — чувствуется уверенность производителя в своей продукции.
Внутри картонная вставка, чтобы содержимое не болталось внутри.
Вставка


Основные особенности:
  1. Запись видеороликов в качестве Full HD 1080p и с углом 135 градусов с автоматической подстройкой уровня ISO до значения 6400.
  2. При столкновении (по датчику удара) автоматически включается функция экстренной записи для обеспечения неопровержимых доказательств и защиты от перезаписи.
  3. Индекс и показатель уровня утомляемости водителя

Характеристики:
  • Параметры камеры: 3.1 МП CMOS F / 2.0
  • Разрешение: full HD ( 1920 x 1080P ) 30fps, HD ( 1280 x 720P ) 30fps
  • Экран: 2.0 LCD
  • Формат видео файла: MOV, AVC audio compression / H.264 video compression
  • Внутренняя память: 64MB SPI flash
  • Карта памяти: Micro SD ( 8GB — 64GB, выше class 6)
  • Время записи: 16GB для full HD: 160 мин,16GB для HD premium: 260 мин
  • Работа часов: 5 дней
  • Рабочая температура: -10… + 65 С
  • Питание: 12 — 24 В / 5В 1A

Комплектация минимально необходимая:

Регистратор, крепление на ветровое стекло с запасным скотчем и блок питания. Не забыли про инструкцию, она на английском и китайском языке.
Карты памяти в комплекте нет.

Инструкция скан









Длина кабеля блока питания целых 4 метра. Крепление регистратора со сферой, выставить его в любое положение не проблема.
Блок питания 12/24 В оснащен не ярким зеленым светодиодным индикатором:

Разъем мини USB прямой, подразумевается проводка кабеля через верх, крышу салона.
Спереди у регистратора расположена камера (3,1 МП 135 градусов обзора, F2,0) и паз для кронштейна крепления.

Корпус пластиковый, приятный на ощупь. Собран жестко без скрипов.
Со стороны водителя 2" экран с разрешением 480х234 и управляющие кнопки:

Там же светодиод индикатор работы, динамик и микрофон.
С боков:

Слот под микро SD карту (до 64 Гб), выход мини HDMI, мини USB — для питания и доступа к файлам с ПК.
Крепление регистратора быстросъемное:

Снимается движением в сторону.
Описание кнопок и размеры:


Установлен в машине:

Снаружи почти не заметен:


Функционал:
Экран при записи:

Запись начинается автоматически при включении зажигания.
Зеленые цифры — индекс утомляемости водителя.

После двух часов непрерывного вождения регистратор начнет предупреждать водителя миганием и звуковым сигналом.

Есть кнопка аварийной записи — при этом ролик не будет затерт и записывается в отдельную папку.
Есть режим монитора наблюдения и детектор движения, но нужно внешнее питание.
Видеовоспроизведение довольно шустрое, можно быстро найти нужный кусок.
Фото режим не предусмотрен.

Меню регистратора
Чувствительность датчика удара настраивается

Разрешений на выбор всего два:



Настройка напоминания об утомляемости

Экран можно отключать

Версия прошивки:




Внутри:

Дальше разобрать не получилось, шлейф назад поставить будет не просто. Внутри, на глаз, все качественно.

Видеоролики:
Пишет по 5 минут. На 8 Гб влезает 80 минут, на 16 — 160 мин, на 32 -320 минут.

оригинал
Параметры файла
General
Format: MPEG-4
Format profile: QuickTime
Codec ID: qt 0000.00 (qt )
File size: 469 MiB
Duration: 5 min 1 s
Overall bit rate: 13.1 Mb/s
Movie_More: CarDV-TURNKEY
Encoded date: UTC 2017-08-24 18:28:36
Tagged date: UTC 2017-08-24 18:28:36
Origin: NVT-IM
Video
ID: 1
Format: AVC
Format/Info: Advanced Video Codec
Format profile: High@L4.1
Format settings, CABAC: Yes
Format settings, ReFrames: 1 frame
Format settings, GOP: M=1, N=15
Codec ID: avc1
Codec ID/Info: Advanced Video Coding
Duration: 5 min 1 s
Bit rate: 11.9 Mb/s
Width: 1 920 pixels
Height: 1 080 pixels
Display aspect ratio: 16:9
Frame rate mode: Constant
Frame rate: 30.000 FPS
Color space: YUV
Chroma subsampling: 4:2:0
Bit depth: 8 bits
Scan type: Progressive
Bits/(Pixel*Frame): 0.191
Stream size: 426 MiB (91%)
Language: English
Encoded date: UTC 2017-08-24 18:28:36
Tagged date: UTC 2017-08-24 18:28:36
Audio
ID: 2
Format: PCM
Format settings, Endianness: Little
Format settings, Sign: Signed
Codec ID: sowt
Duration: 5 min 1 s
Bit rate mode: Constant
Bit rate: 512 kb/s
Channel(s): 1 channel
Sampling rate: 32.0 kHz
Bit depth: 16 bits
Stream size: 18.4 MiB (4%)
Language: English
Encoded date: UTC 2017-08-24 18:28:36
Tagged date: UTC 2017-08-24 18:28:36



Со звуком:

Ночью:

оригинал ночного

У меня регистратор не вызвал нареканий, записывает качественно и камера имеет широкий угол.
Да, у него нет фишечек в виде GPS или камеры заднего вида, даже фото режима нет, но то, для чего он предназначен, он делает хорошо.

Спасибо за внимание! Удачных покупок!


Данный товар из магазина
Цена: $99.68, Перейти в магазин
* цена указана на момент написания обзора (29.08.2017)скачать dle 12.0








Категория: gearbest

Уважаемый посетитель, Вы зашли на сайт как незарегистрированный пользователь.
Мы рекомендуем Вам зарегистрироваться либо войти на сайт под своим именем.
Информация
Посетители, находящиеся в группе Гости, не могут оставлять комментарии к данной публикации.